» » Johnson Enos - Johnson

Johnson Enos - Johnson Album

  • Performer: Johnson Enos
  • Album: Johnson
  • MP3: 2126 mb | FLAC: 1108 mb
  • Released: 1988
  • Rating: 4.5/5
  • Votes: 681
  • Category: Pop / Country, Folk
Johnson Enos - Johnson Album

Tracklist

Me & You
You & Me Together
My Love For You (Will Never Die)
Gimme Just One More
If Only We Could Be
Will I Go
As I
Fools In Love
Groovin

Versions

CategoryArtistTitle (Format)LabelCategoryCountryYear
RB-1001Johnson Enos Johnson ‎(LP, Album)R & B RecordsRB-10011988
COHI-1024Johnson Enos Johnson + 6 ‎(CD, Album, RE, RM)Cool HawaiiCOHI-1024Japan2003

Album

Up Close is Eric Johnson's sixth studio album, released on December 7, 2010. It is Johnson's first studio release since his 2005 album Bloom. The album features guest appearances by Malford Milligan, Sonny Landreth, Steve Miller, Jimmie Vaughan, and Jonny Lang. All songs written by Eric Johnson, except where noted. Roscoe Beck - Bass Guitar. Kelly Donnelly - Engineer. Kevin Hall - Drums. Andy Johns - Mixing. Eric Johnson - Guitar, Vocals, Producer. Eric Johnson - Tones 1986. To favorites 0 Download album. Listen album. Eric Johnson. Songs in album Eric Johnson - Tones 1986. Eric Johnson - Soulful Terrain. Eric Johnson - Friends. Eric Johnson - Emerald Eyes. Eric Johnson - Off My Mind. Eric Johnson - Desert Song. Eric Johnson - Trail Of Tears. Eric Johnson - Bristol Shore. Eric Johnson - Zap. Eric Johnson - Victory. Follow Eric Johnson guitarist and others on SoundCloud. Johnson's lifelong love of jazz and more recent forays into playing it emerges on his stunning nine-and-a-half minute interpretation of John Coltrane's Mr. on which bassist Chris Maresh and drummer Wayne Salzmann also step out with power. The song selection ranges from an acoustic guitar rendition of A Song For Life which he initially cut on his debut studio album to the ferociously funky Fatdaddy from his most recent release, Up Close. Biography by Timothy Monger. Follow Artist. Album Highlights. Ah Via Musicom. Seven Worlds. Live from Austin TX. See Full Discography. Enos Johnson: River of Death, I'll Meet You in Church Sunday, I'm on My Way to the Old Folks Home и другие песни. Johnson&Jonson is the debut studio album from American hip hop duo, Johnson&Jonson Blu and Mainframe. It was released on September 23, 2008 by Tres Records. The album was originally named Powders & Oils and had 21 tracks instead of 16. The Powders & Oils mix is expected to be officially released sometime in the future, as well as Kinda' Busty 12, Mama Told MeHold On John 12, and The Only WayHalf A Knot 12. This is the discography for American rock musician Eric About Eric Bio EJ Archives Store Music Videos Contact. Ej vol II featuring Waterwheel. Preview the album here The classics : Present & past tour. Формируйте собственную коллекцию записей Johnson JOHNSON: BEST MOMENTS ONSTAGE SETLIST BELOW - Продолжительность: 17:18

Performer

Johnson Enos: I'm on My Way to the Old Folks Home, I'll Meet You in Church Sunday Morning. Listen to music from Johnson Enos like I'll Meet You in Church Sunday, Now That You're Gone & more. Find the latest tracks, albums, and images from Johnson Enos. Learn more. Recent Listening Trend. All Moods. Background Music. Cool & Cocky. Johnson Enos, Soundtrack: Mickey Mouse. Johnson Enos. Soundtrack Music Department. Add or change photo on IMDbPro . Contribute to IMDb. Add a bio, trivia, and more. Update information for Johnson Enos . Quick Links. Deron Johnson is an American jazz keyboardist. Beginning at the age of sixteen, Johnson became hooked on jazz music and attended California State University, Long Beach where he continued his pursuit with private lessons from Billy Childs. In 1991, after touring with pop idol Paula Abdul, Johnson was discovered by the trumpeter Miles Davis. Johnson completed three European tours and two American tours with Davis before he died, and recorded the keyboards on his last CD Doo-Bop 1992. Johnson then. There are no setlists by Johnson Enos on yet. You could help us by adding a first setlist. or whatever you remember Add new setlist now. More from this Artist. Artist Statistics. Enos L Johnson 69 Hobbs, NM. Background Check & Contact Info. Radar Info. Hawaii Warrior Football 2007 We are the Warriors Music vid by Johnson Enos and KITV. Johns Enos, Johns Enos 1988 Youtube. 6 Sep 2009 Introducing 4 songs from the album Johnson Enos, Johnson Enos. http:www. Johnson Enos, Johnson Enos 1988. Duration: 2m 21s. Uploaded: Category: Music. Johnson Enos Oh Girl. Duration: 4m 10s. Enos Johnson. LaRonda Enos johnson. Yate Music Tagger. Developer Resources. XML Web Service. Live Data Feed. Artist information. Sort name: Enos, Johnson. Type: Person

Foginn
foobar2000 1.4.4 / Dynamic Range Meter 1.1.1
log date: 2020-01-08 20:05:30

--------------------------------------------------------------------------------
Analyzed: Johnson Enos / Johnson Enos + 6 [JP 1988/2003 CD]
--------------------------------------------------------------------------------

DR Peak RMS Duration Track
--------------------------------------------------------------------------------
DR10 -0.72 dB -12.46 dB 3:19 01-You And Me Together
DR10 -0.34 dB -13.29 dB 3:53 02-Me And You
DR9 -1.08 dB -12.29 dB 3:37 03-If Only We Could Be
DR9 -3.09 dB -14.21 dB 3:15 04-Gimmie Just One More
DR9 -1.95 dB -13.42 dB 4:01 05-Will I Go
DR9 -1.78 dB -13.21 dB 3:29 06-Groovin
DR9 -3.02 dB -15.95 dB 3:48 07-As I
DR10 -1.63 dB -13.54 dB 3:14 08-Fools In Love
DR9 -2.34 dB -13.40 dB 3:46 09-My Love For You (Will Never Die)
DR11 -0.80 dB -13.73 dB 4:08 10-Oh Girl (I Love You)
DR11 -0.88 dB -14.31 dB 3:45 11-Never Gonna Let You Leave
DR10 -1.58 dB -14.33 dB 3:10 12-I'll Always Be Loving You
DR11 -2.04 dB -15.25 dB 2:49 13-The Moon Of Maui
DR9 -1.86 dB -14.47 dB 4:06 14-What Can I Do (What Can I Say)
DR9 -1.39 dB -12.90 dB 4:21 15-Be My Love
--------------------------------------------------------------------------------

Number of tracks: 15
Official DR value: DR10

Samplerate: 44100 Hz
Channels: 2
Bits per sample: 16
Bitrate: 962 kbps
Codec: ALAC
================================================================================
Related to Johnson Enos - Johnson: